The Twilight Saga Breaking Dawn Part 1[2011]CAM [PSP,iPod,Mobile]...

  • Category Movies
  • Type Mp4
  • Language English
  • Total size 366.8 MB
  • Uploaded By DeTor
  • Downloads 1140
  • Last checked 8 months ago
  • Date uploaded 7 years ago
  • Seeders 0
  • Leechers 0

The Twilight Saga: Breaking Dawn - ...

AdventureFantasyRomance

The new found married bliss of Bella Swan and vampire Edward Cullen is cut short when a series of betrayals and misfortunes threatens to destroy their world. Bella soon discovers she is pregnant, and during a nearly fatal childbirth, Edward finally fulfills her wish to become immortal. But the arrival of their remarkable daughter, Renesmee, sets in motion a perilous chain of events that pits the Cullens and their allies against the Volturi, the fearsome council of vampire leaders, setting the stage for an all-out battle.

Infohash : D130C236B1AED1043F00922177B2719C3073F6A3






Code:

Genre :Adventure | Drama | Fantasy

Language:English

IMDb:http://www.imdb.com/title/tt1324999/

PLOT:The Quileute and the Volturi close in on expecting
parents Edward and Bella, whose unborn child poses
different threats to the wolf pack and vampire coven.



General
Complete name :The Twilight Saga Breaking Dawn Part 1[2011]CAM [PSP,iPod,Mobile] -BlackStaticRG.mp4
Format : MPEG-4
Codec ID : MSNV
File size : 367 MiB
Duration : 1h 43mn
Overall bit rate mode : Variable
Overall bit rate : 498 Kbps

Video
ID : 1
Format : MPEG-4 Visual
Format profile : [email protected]
Format settings, BVOP : No
Format settings, QPel : No
Format settings, GMC : No warppoints
Format settings, Matrix : Default (H.263)
Codec ID : 20
Duration : 1h 43mn
Bit rate : 452 Kbps
Width : 400 pixels
Height : 160 pixels
Display aspect ratio : 2.500
Frame rate mode : Constant
Frame rate : 29.970 fps
Color space : YUV
Chroma subsampling : 4:2:0
Bit depth : 8 bits
Scan type : Progressive
Compression mode : Lossy
Bits/(Pixel*Frame) : 0.236
Stream size : 333 MiB (91%)
Writing library : Lavc52.10.0

Audio
ID : 2
Format : AAC
Format/Info : Advanced Audio Codec
Format profile : LC
Codec ID : 40
Duration : 1h 43mn
Bit rate mode : Variable
Bit rate : 42.3 Kbps
Channel(s) : 2 channels
Channel positions : Front: L R
Sampling rate : 24.0 KHz
Compression mode : Lossy
Stream size : 31.2 MiB (8%)


Like it Download It









Enjoy.... !

Greetz to ::
IMAGiNE,Flawl3ss,BDK,Ez,DDR,Sam,absurdity,BHRG,iLLUMiNATi,ViSUALiSE,MiSTERE,Feel-Free !!

Files:

Shots
  • vlcsnap-2011-11-22-23h26m04s88.jpg (9.5 KB)
  • vlcsnap-2011-11-22-23h25m40s70.jpg (7.6 KB)
  • vlcsnap-2011-11-22-23h25m47s165.jpg (6.8 KB)
  • vlcsnap-2011-11-22-23h26m09s133.jpg (5.6 KB)
  • vlcsnap-2011-11-22-23h26m00s42.jpg (4.7 KB)
  • The Twilight Saga Breaking Dawn Part 1[2011]CAM [PSP,iPod,Mobile] -BlackStaticRG.mp4 (366.8 MB)
  • Torrent Downloaded From ExtraTorrent.com.txt (0.3 KB)

Comments

Code:

  • http://fr33dom.h33t.com:3310/announce
  • http://tracker.torrentbay.to:6969/announce
  • http://tracker.novalayer.org:6969/announce
  • http://tracker.publicbt.com:80/announce
  • http://tracker.torrent.to:2710/announce
SitemapDownloaden APK | The L Word | saison 4, épisode 11 - Fils à maman